+ ShareSpark.net »  :::: Bollywood Zone » Bollywood Movies (Original Rips) » HEVC / H.265 Releases
|-  Bhool Bhulaiyaa (2007) (1080p BluRay x265 HEVC 10bit AAC 5.1) - QxR


Electroncs Sale

Bhool Bhulaiyaa (2007) (1080p BluRay x265 HEVC 10bit AAC 5.1) - QxR

0 Members and 1 Guest are viewing this topic.

January 11, 2019, 06:47:56 PM
  • Conqueror
  • Legend Member
  • *****
  • Topic Author
  • Thank You: 5224
  • Reputation: 1090
  • Activity:
    100%
  • Country: np
  • Posts: 1867
  • Topics: 1562
  • Join Date: Jul 2016
  • Love Forever !!
Bhool Bhulaiyaa (2007) (1080p BluRay x265 HEVC 10bit AAC 5.1) - [QxR]




 :info:
Source : Bhool Bhulaiyaa 2007.Complete.Blu-Ray AVC-DTOne 10th Anniversary | 30 GB | DesiTorrents
Format                                   : Matroska
Format version                           : Version 4 / Version 2
File size                                : 3.37 GiB
Duration                                 : 2 h 34 min
Overall bit rate                         : 3 113 kb/s


Video
ID                                       : 1
Format                                   : HEVC
Format/Info                              : High Efficiency Video Coding
Format profile                           : Main [email protected]@Main
Codec ID                                 : V_MPEGH/ISO/HEVC
Duration                                 : 2 h 34 min
Bit rate                                 : 2 649 kb/s
Width                                    : 1 920 pixels
Height                                   : 816 pixels
Display aspect ratio                     : 2.35:1
Frame rate mode                          : Constant
Frame rate                               : 23.976 (24000/1001) FPS
Color space                              : YUV
Chroma subsampling                       : 4:2:0
Bit depth                                : 10 bits
Bits/(Pixel*Frame)                       : 0.071
Stream size                              : 2.86 GiB (85%)


Audio
ID                                       : 2
Format                                   : AAC
Format/Info                              : Advanced Audio Codec
Format profile                           : LC
Codec ID                                 : A_AAC
Duration                                 : 2 h 34 min
Bit rate                                 : 457 kb/s
Channel(s)                               : 6 channels
Channel positions                        : Front: L C R, Side: L R, LFE
Sampling rate                            : 48.0 kHz
Frame rate                               : 46.875 FPS (1024 spf)
Compression mode                         : Lossy
Delay relative to video                  : 20 ms
Stream size                              : 506 MiB (15%)
Language                                 : English
Default                                  : No
Forced                                   : No


Subtitle
ID                                       : 3
Format                                   : PGS
Muxing mode                              : zlib
Codec ID                                 : S_HDMV/PGS
Codec ID/Info                            : Picture based subtitle format used on BDs/HD-DVDs
Duration                                 : 2 h 31 min
Bit rate                                 : 26.7 kb/s
Count of elements                        : 3469
Stream size                              : 28.9 MiB (1%)
Default                                  : No
Forced                                   : No



 :ss:






 :download:

Share this topic on FacebookShare this topic on GoogleShare this topic on MySpaceShare this topic on TwitterShare this topic on Yahoo




Tags:
 

Related Topics

  Subject / Started by Replies Last post
0 Replies
1742 Views
Last post March 20, 2013, 04:20:22 PM
by Vikass17
0 Replies
1246 Views
Last post September 28, 2017, 05:49:59 PM
by ♥[--K4Krish--]♥
10 Replies
2154 Views
Last post April 14, 2018, 01:55:45 PM
by Jatkingdom007
1 Replies
820 Views
Last post December 12, 2018, 05:06:03 PM
by Special26
0 Replies
289 Views
Last post November 18, 2018, 10:43:31 AM
by Special26




Back to top