+ ShareSpark.net »  :::: Dubbed Zone (Dubbed English in Hindi) » English Movies Dubbed in Hindi » High Resolution Movies
|- The Bourne Complete Collection (2002 - 2016) 1080p BluRay x264 Dual Audio [Hindi - English] DD5.1 -

Add 1000 Get 100 Back

The Bourne Complete Collection (2002 - 2016) 1080p BluRay x264 Dual Audio [Hindi - English] DD5.1 -

0 Members and 1 Guest are viewing this topic.

August 09, 2018, 11:09:42 PM
  • Global Moderator
  • Legend Member
  • *****
  • Topic Author
  • Thank You: 8408
  • Reputation: 1820
  • Activity:
    100%
  • Country: in
  • Posts: 4767
  • Topics: 3960
  • Join Date: Jan 2014
  • ıllıllı ѕмoĸιng ιѕ good ғor нealтн ıllıllı :)






The Bourne Complete Collection (2002 - 2016) 1080p BluRay x264 Dual Audio [Hindi - English] DD5.1 - Esub ~ Ranvijay

Thanks To The Punisher, Hammer And Snowdon For Hindi Audios

Buy RDP Online




The Bourne Identity (2002) 1080p BluRay x264 Dual Audio [ Hindi DD5.1 - English DD5.1] - Esub ~ Ranvijay

Quote
Format                                   : Matroska
Format version                           : Version 4 / Version 2
File size                                : 5.05 GiB
Duration                                 : 1 h 58 min
Overall bit rate                         : 6 097 kb/s
Movie name                               : The Bourne Identity (2002) 1080p BluRay x264 Dual Audio [ Hindi DD5.1 - English DD5.1] - Esub ~ Ranvijay

Video
ID                                       : 1
Format                                   : AVC
Duration                                 : 1 h 58 min
Bit rate                                 : 5 000 kb/s
Width                                    : 1 920 pixels
Height                                   : 816 pixels
Display aspect ratio                     : 2.35:1
Frame rate mode                          : Constant
Frame rate                               : 23.976 (24000/1001) FPS
Stream size                              : 4.14 GiB (82%)
Title                                    : ~Ranvijay~

Audio #1
ID                                       : 2
Format                                   : AC-3
Bit rate mode                            : Constant
Bit rate                                 : 640 kb/s
Channel(s)                               : 6 channels
Channel positions                        : Front: L C R, Side: L R, LFE
Language                                 : Hindi


Audio #2
ID                                       : 3
Format                                   : AC-3
Bit rate mode                            : Constant
Bit rate                                 : 448 kb/s
Channel(s)                               : 6 channels
Channel positions                        : Front: L C R, Side: L R, LFE
Title                                    : ~Ranvijay~
Language                                 : English


Text
ID                                       : 4
Format                                   : PGS
Title                                    : ~Ranvijay~
Language                                 : English









The Bourne Supremacy (2004) 1080p BluRay x264 Dual Audio [Hindi DD5.1 - English DD5.1] - Esub ~ Ranvijay

Quote
Format                                   : Matroska
Format version                           : Version 4 / Version 2
File size                                : 4.62 GiB
Duration                                 : 1 h 48 min
Overall bit rate                         : 6 096 kb/s
Movie name                               : The Bourne Supremacy (2004) 1080p BluRay x264 Dual Audio [Hindi DD5.1 - English DD5.1] - Esub ~ Ranvijay

Video
ID                                       : 1
Format                                   : AVC
Format/Info                              : Advanced Video Codec
Duration                                 : 1 h 48 min
Bit rate                                 : 5 000 kb/s
Width                                    : 1 920 pixels
Height                                   : 816 pixels
Display aspect ratio                     : 2.35:1
Frame rate mode                          : Constant
Frame rate                               : 23.976 (24000/1001) FPS
Stream size                              : 3.79 GiB (82%)
Title                                    : ~Ranvijay~

Audio #1
ID                                       : 2
Format                                   : AC-3
Bit rate mode                            : Constant
Bit rate                                 : 640 kb/s
Channel(s)                               : 6 channels
Channel positions                        : Front: L C R, Side: L R, LFE
Title                                    : ~Ranvijay~
Language                                 : Hindi

Audio #2
ID                                       : 3
Format                                   : AC-3
Bit rate mode                            : Constant
Bit rate                                 : 448 kb/s
Channel(s)                               : 6 channels
Channel positions                        : Front: L C R, Side: L R, LFE
Title                                    : ~Ranvijay~
Language                                 : English

Text
ID                                       : 4
Format                                   : PGS
Title                                    : ~Ranvijay~









The Bourne Ultimatum (2007) 1080p BluRay x264 Dual Audio [ Hindi DD5.1 - English DD5.1] - Esub ~ Ranvijay

Quote
Format                                   : Matroska
Format version                           : Version 4 / Version 2
File size                                : 4.91 GiB
Duration                                 : 1 h 55 min
Overall bit rate                         : 6 091 kb/s
Movie name                               : The Bourne Ultimatum (2007) 1080p BluRay x264 Dual Audio [ Hindi DD5.1 - English DD5.1] - Esub ~ Ranvijay

Video
ID                                       : 1
Format                                   : AVC
Format/Info                              : Advanced Video Codec
Duration                                 : 1 h 55 min
Bit rate                                 : 5 000 kb/s
Width                                    : 1 920 pixels
Height                                   : 800 pixels
Display aspect ratio                     : 2.40:1
Frame rate mode                          : Constant
Frame rate                               : 23.976 (24000/1001) FPS
Title                                    : ~Ranvijay~

Audio #1
ID                                       : 2
Format                                   : AC-3
Bit rate mode                            : Constant
Bit rate                                 : 640 kb/s
Channel(s)                               : 6 channels
Channel positions                        : Front: L C R, Side: L R, LFE
Title                                    : ~Ranvijay~
Language                                 : Hindi

Audio #2
ID                                       : 3
Format                                   : AC-3
Bit rate mode                            : Constant
Bit rate                                 : 448 kb/s
Channel(s)                               : 6 channels
Channel positions                        : Front: L C R, Side: L R, LFE
Title                                    : ~Ranvijay~
Language                                 : English


Text
ID                                       : 4
Format                                   : PGS
Title                                    : ~Ranvijay~
Language                                 : English










The Bourne Legacy (2012) 1080p BluRay x264 Dual Audio [Hindi DTS 5.1 - English DD5.1] - Esub ~ Ranvijay

Quote
Format                                   : Matroska
Format version                           : Version 4 / Version 2
File size                                : 5.87 GiB
Duration                                 : 2 h 15 min
Overall bit rate                         : 6 225 kb/s
Movie name                               : The Bourne Legacy (2012) 1080p BluRay x264 Dual Audio [Hindi DTS 5.1 - English DD5.1] - Esub ~ Ranvijay

Video
ID                                       : 1
Format                                   : AVC
Format/Info                              : Advanced Video Codec
Duration                                 : 2 h 15 min
Bit rate                                 : 5 000 kb/s
Width                                    : 1 920 pixels
Height                                   : 800 pixels
Display aspect ratio                     : 2.40:1
Frame rate mode                          : Constant
Frame rate                               : 23.976 (24000/1001) FPS
Stream size                              : 4.71 GiB (80%)
Title                                    : ~Ranvijay~

Audio #1
ID                                       : 2
Format                                   : DTS
Bit rate mode                            : Constant
Bit rate                                 : 768 kb/s
Channel(s)                               : 6 channels
Channel positions                        : Front: L C R, Side: L R, LFE
Title                                    : ~Ranvijay~
Language                                 : Hindi

Audio #2
ID                                       : 3
Format                                   : AC-3
Bit rate mode                            : Constant
Bit rate                                 : 448 kb/s
Channel(s)                               : 6 channels
Channel positions                        : Front: L C R, Side: L R, LFE
Title                                    : ~Ranvijay~
Language                                 : English

Text
ID                                       : 4
Format                                   : PGS
Title                                    : ~Ranvijay~
Language                                 : English










Jason Bourne (2016) 1080p BluRay x264 Dual Audio [Hindi DD5.1 - English DD5.1] - Esub ~ Ranvijay

Quote
Format                                   : Matroska
Format version                           : Version 4 / Version 2
File size                                : 5.03 GiB
Duration                                 : 2 h 3 min
Overall bit rate                         : 5 841 kb/s
Movie name                               : Jason Bourne (2016) 1080p BluRay x264 Dual Audio [Hindi DD5.1 - English DD5.1] - Esub ~ Ranvijay

Video
ID                                       : 1
Format                                   : AVC
Duration                                 : 2 h 3 min
Bit rate                                 : 5 000 kb/s
Width                                    : 1 920 pixels
Height                                   : 804 pixels
Display aspect ratio                     : 2.40:1
Frame rate mode                          : Constant
Frame rate                               : 23.976 (24000/1001) FPS
Stream size                              : 4.30 GiB (86%)
Title                                    : ~Ranvijay~

Audio #1
ID                                       : 2
Format                                   : AC-3
Bit rate mode                            : Constant
Bit rate                                 : 384 kb/s
Channel(s)                               : 6 channels
Channel positions                        : Front: L C R, Side: L R, LFE
Title                                    : ~Ranvijay~
Language                                 : Hindi

Audio #2
ID                                       : 3
Format                                   : AC-3
Bit rate mode                            : Constant
Bit rate                                 : 448 kb/s
Channel(s)                               : 6 channels
Channel positions                        : Front: L C R, Side: L R, LFE
Title                                    : ~Ranvijay~
Language                                 : English

Text
ID                                       : 4
Format                                   : PGS
Title                                    : ~Ranvijay~
Language                                 : English











:download:

Quote





SAMPLES





File Leeched & Uploaded From




Don't walk as you are king, walk as you don't care who the king is....!!
Never argue with an idiot. They drag you down to their level and then beat you with experience?

Share this topic on FacebookShare this topic on GoogleShare this topic on MySpaceShare this topic on TwitterShare this topic on Yahoo




Don't walk as you are king, walk as you don't care who the king is....!!

August 10, 2018, 12:16:35 AM
Reply #1
  • Conqueror
  • Royal Member
  • *****
  • Thank You: 462
  • Reputation: 176
  • Activity:
    30.2%
  • Country: in
  • Posts: 1052
  • Topics: 459
  • Join Date: Oct 2015
  • Hit ThanX Button 🔳 N Repute Button 🔳
« Last Edit: August 10, 2018, 12:17:07 AM by JackRoSe »
Hit Thnx Button 🔳 N + Repute Button 🔳 Always Appreciate UploadeR 🤗 GiVe Respect GeT Respect :yu:

August 12, 2018, 06:18:14 PM
Reply #2
  • Devoted Member
  • **
  • Thank You: 0
  • Reputation: 2
  • Activity:
    4%
  • Posts: 148
  • Topics: 0
  • Join Date: Nov 2013
  • ShareSpark Member

Tags:
 

Related Topics




Back to top