+ ShareSpark.net »  :::: Bollywood Zone » Bollywood Movies (Pre Releases)
|- Wajah Tum Ho (2016) x264 DesiPDvD Rip AAC 2.0 - 1.36GB - [DDR] GOOGLE DRIVE LINKS ADDED


Redmi 6A

Wajah Tum Ho (2016) x264 DesiPDvD Rip AAC 2.0 - 1.36GB - [DDR] GOOGLE DRIVE LINKS ADDED

0 Members and 1 Guest are viewing this topic.

December 17, 2016, 07:08:03 PM
  • Elite Moderator
  • Legend Member
  • ****
  • Topic Author
  • Thank You: 2003
  • Reputation: 289
  • Activity:
    0.4%
  • Country: in
  • Posts: 3724
  • Topics: 2854
  • Join Date: Sep 2016
  • (: EnJOy D LiFe :)
:title:

Wajah Tum Ho (2016) x264 DesiPDvD Rip AAC 2.0 -DDR




 :info:

Source: Desi PDVD @ ICTV (Lotty Bhai Ka Warehouse)

Format : Matroska
File size : 1.36 GiB
Duration : 2 h 9 min
Overall bit rate : 1 509 kb/s
Encoded date : UTC 2016-12-17 12:02:43

Video
Format : AVC
Format/Info : Advanced Video Codec
Format profile : [email protected]
Format settings, CABAC : Yes
Format settings, ReFrames : 16 frames
Codec ID : V_MPEG4/ISO/AVC
Duration : 2 h 9 min
Bit rate : 1 379 kb/s
Width : 720 pixels
Height : 320 pixels
Display aspect ratio : 2.25:1
Frame rate mode : Constant
Frame rate : 24.975 (25000/1001) FPS
Color space : YUV
Chroma subsampling : 4:2:0
Bit depth : 8 bits
Scan type : Progressive
Bits/(Pixel*Frame) : 0.240
Stream size : 1.25 GiB (91%)
Writing library : x264 core 148 r2744 b97ae06
Default : Yes
Forced : No
Color range : Limited
Color primaries : BT.601 NTSC
Transfer characteristics : BT.470 System B, BT.470 System G
Matrix coefficients : BT.601

Audio
Format : AAC
Format/Info : Advanced Audio Codec
Format profile : LC
Codec ID : A_AAC
Duration : 2 h 9 min
Bit rate : 128 kb/s
Channel(s) : 2 channels
Channel positions : Front: L R
Sampling rate : 48.0 kHz
Frame rate : 46.875 FPS (1024 spf)
Compression mode : Lossy
Delay relative to video : 9 ms
Stream size : 118 MiB (8%)
Language : Hindi
Default : Yes
Forced : No

Chapters = YES


 :ss:








A DDR Exclusive Encode


 :download:









GOOGLE DRIVE LINKS









 :sample:






ADD THANK YOU & +REP IF YOU LIKE THE POST


Share this topic on FacebookShare this topic on GoogleShare this topic on MySpaceShare this topic on TwitterShare this topic on Yahoo

« Last Edit: January 01, 2017, 05:10:28 PM by PSYCHO »


* BUSY *

Thanks given by:


December 17, 2016, 09:46:58 PM
Reply #1
  • Begginer
  • **
  • Thank You: 0
  • Reputation: 1
  • Activity:
    0%
  • Country: in
  • Posts: 68
  • Topics: 0
  • Join Date: Nov 2016
  • ShareSpark Member

Tags:
 

Related Topics





Back to top